Перейти к контенту
HIGHLANDER

Разговоры на компьютерную тему

Рекомендуемые сообщения

Ноутбук asus N56V , при перегрузке (а также вкл-выкл) выпадает каждый раз синий экран, иногда систему не догружает, а прямо из экрана приветствия появляется.

Скрытый текст

bI5O8.jpg

система стоит вин7 (от старожил), раньше стояла другая сборка - выдавала такой же косяк, в связи с чем и была заменена с форматированием жесткого диска. Каждые полгода примерно выскакивает этот косяк. Еще раньше стояла 8-ка (около месяца всего)

Изменено пользователем Серый Волк
Ссылка на комментарий

@Серый Волк Читай и выбирай (много чего, может эту ошибку вызвать): https://kakpedia.org/код-ошибки-0x0000007e-решено/

  • Спасибо 1
  • Согласен 1
 

Desktop: i7-11700k/Gigabyte Z590 D/64 Гб DDR4-3600 (2х32Гб)/RTX 3060 12Гб/HP Z24n G3 - WUXGA/Kingston HyperX Predator (m2) 240Гб + Kingston A2000 1Тб + 4HDD (11Тб)/Thermaltake smart BM2 - 650Вт/Win10+QtTab

\\\ Дополнения к ОГСЕ 0693 /// \\\ OGSRmod ///\\\Огниво (говорим обо всём)///\\\Балкон///

Ссылка на комментарий
50 минут назад, Graff46 сказал:

путь ярлыка будет абсолютным

@Graff46 , если ещё актуально, попробуй погуглить "символические ссылки", "симлинки", "symbolic link". По моему, то, что хочешь. Нюансы есть, поэтому, имхо, проще (и надёжней :biggrin:) самому почитать, разобраться.

Ссылка на комментарий
3 часа назад, W.A.S.P. сказал:

(много чего, может эту ошибку вызвать)

........................

@Серый Волк установи утилиту "BlueScreenView" и посмотри в ней, какой модуль даёт сбой. 

  • Спасибо 1

БОМЖ (надеюсь, что временно).

 

Ссылка на комментарий

@Stalker Nest 

Как вариант - бесплатный Касперский. Чтоб не выскакивало лишних уведомлений надо будет зарегаться на сайте Каспера. Лицензия продлевается 1 раз в год.

Ссылка на комментарий

@amateur_61 установил, но есть проблема: ноут запускается уже только в безопасном режиме, а в нем нет доступа в инет.

Ссылка на комментарий
2 минуты назад, Серый Волк сказал:

нет доступа в инет

Это режим по умолчанию. В меню выбора безопасного режима нужно выбрать вариант с сетью.

  • Спасибо 1
  • Согласен 1
  • Полезно 1
Ссылка на комментарий

На Windows 10 столкнулся с проблемой работы старых оболочек DVD-мании, тех что до октября 2007 года, дальше уже у дисков появился новый движок, с ним проблем нет (хоть старый также остался, как альтернатива).

Первая ошибка, которая изначально возникла при попытке их запустить это:

MANIA disk
IDirectDraw not made
D3DRM.dll not loaded.

Но она быстро решаема, благо есть ответ самой Игромании: https://www.igromania.ru/article/11601/Goryachaya_liniya_zhelezo.html

Цитата


Проблема возникла из-за того, что Windows Vista использует DirectX 10, а не 9-й, под который писалась оболочка диска. Чтобы поправить дело, нужно в папку Windows\System32 скопировать файл D3DRM.dll. Скопировать его можно с машины, на которой установлена Windows XP.

p.s. файлик я стянул из мартовского пакета директа: https://www.microsoft.com/en-us/download/details.aspx?id=19743

 

Точно не помню, была ли у меня такая проблема, когда пользовался 7ой или 8/8.1. Но вот на 10ке она есть.

 

Суть главной проблемы: по какой-то причине в оболочке все мигает! Просто прерывается черным эрканом.
Однако заметил, что во время загрузки тяжелых материалов - мигать перестает. Пример тут

 

Вот видеодемонстрация, что я имею ввиду: https://www.youtube.com/watch?v=Q3uAKw2SSzk

 

Вот файлы для тестирования (выдрал оболочку с диска):
https://drive.google.com/open?id=1aaNlPw8V6Vrgh4x-4G7InrU9sw7sE-MU

 

Шарит кто в DirectX ?

Изменено пользователем aka_sektor
Добавлено  Murarius,

Перемещено.

Ссылка на комментарий

1. Там есть версия HTML чем не устраивает?

2. Там дело не в DX а в том что после XP винда перестала работать с DDraw (использовать вывод видео через overlay). Не лечиться - то есть совсем ни как!

Ссылка на комментарий

@iMac отбой, проблему с миганием уже решил. Если кратко, то запускаю оболочку через утилиту D3DWindower.

 

42 минуты назад, iMac сказал:

HTML чем не устраивает?

Всем.

А если напрямую, ностальгия. 10 лет назад я html версию не смотрел.

 

42 минуты назад, iMac сказал:

Там дело не в DX а в том что после XP винда перестала работать с DDraw

Ха! Игроманцы ламеры...

Изменено пользователем aka_sektor
Ссылка на комментарий

Понадобилось тут перемонтировать одно старое видео в контейнере .avi, для этого использовал Sony Vegas 13.0 build 453, а он файл не хочет читать.

 

Посмотрел в MediaInfo:

Format                                   : VP6
Format profile                           : Simple
Codec ID                                 : VP60

Что это за кодек такой, и где его скачать?

 

p.s. ещё и кадры/сек какие-то странные:

Frame rate                               : 15.000 FPS

 

Изменено пользователем aka_sektor
Ссылка на комментарий

@iMac я тут поспрашивал, дали ссылку на кодек: https://download.ru/files/q8oYRoQy

 

Вот только Vegas почему-то все равно не открывает. А вот VirtualDubMod уже видео открыл и проигрывает, хотя без кодека этого не мог.

 

Значит в системе кодек определился, но почему-то Vegas его не читает.

 

Видео из 2007 года, подумал, может DivX Player с тех пор его запустит, но нет, тоже ошибка:

s_1514032078_2379682_4cd58d151c.png

 

Пишет нужен некий DirectShow decoder. Где такой взять?

 

UPD:

Попробовал отсюда: https://sourceforge.net/projects/gplmpgdec/

Ничего не изменилось.

 

UPD:

Открыл видео в PotPlayer (современном), там проигрывается да, и пишет:

h_1514032850_4623791_c94107ac79.png

 

Эт где такой скачать?

Изменено пользователем aka_sektor
Ссылка на комментарий
В 22.12.2017 в 09:37, aka_sektor сказал:

перемонтировать одно старое видео в контейнере .avi

VirtualDubMod + пак кодеков. Порезать, склеить,... Работает в разы быстрее, прост, как 2 копейки и подхватывает любые кодеки автоматически без танца с бубном.

ed_rez.gif

c1f11b67ff360413e81b4e4dcf21eb41.jpg

Ссылка на комментарий
40 минут назад, aka_sektor сказал:

Пишет нужен некий DirectShow decoder. Где такой взять?

Установить K-Lite Codec Pack и забыть о проблемах с кодеками.

 

p.s.

Устанавливать нужно по умолчанию. 

Скачать рекомендуется с filehippo.

Изменено пользователем shahvkit
  • Согласен 1
Ссылка на комментарий
36 минут назад, ed_rez сказал:

пак кодеков

Надо конкретный. Паки не панацея. Я пока отдельно Xvid и QuickTime не поставил, у меня файлы не читались.

 

36 минут назад, ed_rez сказал:

Порезать, склеить

Шутишь? Говорю же - Vegas использую.

 

В общем, скачал этот FFmpeg отсюда: https://www.videohelp.com/software/ffmpeg
Установил, как сказано в видео: https://www.youtube.com/watch?v=mJEYgd5iJfQ
Однако, DivX все равно не воспроизводит. И в Vegas ошибка.

Изменено пользователем aka_sektor
Ссылка на комментарий
8 минут назад, aka_sektor сказал:

Надо конкретный

Как и @shahvkit посоветовал, я использую уже более 10 лет K-Lite Codec Pack. Нет таких форматов, который я не смог бы открыть и воспроизвести.

8 минут назад, aka_sektor сказал:

DivX все равно не воспроизводит

DivX Plus Codec Pack

@aka_sektor ,

скинь файл с кодеком DivX. Мне даже интересно, открою я в Вегасе с тем набором кодеков, который у меня. Если файл большой, то не нужно. Мне проще скачать любой старый фильм...

Изменено пользователем ed_rez

ed_rez.gif

c1f11b67ff360413e81b4e4dcf21eb41.jpg

Ссылка на комментарий

В общем, скачал такую раздачу- https://rutracker.org/forum/viewtopic.php?t=2658031

 

General
Complete name               : C:\My Downloads\Сердце_Львицы_-_Heart_of_a_Lioness_[Mk664]_[torrents.ru].avi
Format                      : AVI
Format/Info                 : Audio Video Interleave
File size                   : 694 MiB
Duration                    : 43 min 28 s
Overall bit rate mode       : Variable
Overall bit rate            : 2 231 kb/s
Writing library             : VirtualDub build 32661/release

Video
ID                          : 0
Format                      : MPEG-4 Visual
Format settings             : BVOP1
Format settings, BVOP       : 1
Format settings, QPel       : No
Format settings, GMC        : No warppoints
Format settings, Matrix     : Default (H.263)
Muxing mode                 : Packed bitstream
Codec ID                    : DX50
Codec ID/Hint               : DivX 5
Duration                    : 43 min 28 s
Bit rate                    : 2 000 kb/s
Nominal bit rate            : 4 854 kb/s
Width                       : 704 pixels
Height                      : 396 pixels
Display aspect ratio        : 16:9
Frame rate                  : 25.000 FPS
Color space                 : YUV
Chroma subsampling          : 4:2:0
Bit depth                   : 8 bits
Scan type                   : Progressive
Compression mode            : Lossy
Bits/(Pixel*Frame)          : 0.287
Stream size                 : 622 MiB (90%)
Writing library             : DivX 6.8.5 (UTC 2009-08-20)

Audio
ID                          : 1
Format                      : MPEG Audio
Format version              : Version 1
Format profile              : Layer 3
Format settings             : Joint stereo / MS Stereo
Codec ID                    : 55
Codec ID/Hint               : MP3
Duration                    : 43 min 28 s
Bit rate mode               : Variable
Bit rate                    : 218 kb/s
Minimum bit rate            : 32.0 kb/s
Channel(s)                  : 2 channels
Sampling rate               : 48.0 kHz
Frame rate                  : 41.667 FPS (1152 SPF)
Compression mode            : Lossy
Stream size                 : 67.9 MiB (10%)
Alignment                   : Aligned on interleaves
Interleave, duration        : 24  ms (0.60 video frame)
Interleave, preload duratio : 393  ms
Writing library             : LAME3.98r
Encoding settings           : -m j -V 0 -q 0 -lowpass 19.5 --vbr-new -b 32

 

Вегас открыл:

217ad465d8e2bedf625b1b670ea8030a4f879329

 

Изменено пользователем Murarius

ed_rez.gif

c1f11b67ff360413e81b4e4dcf21eb41.jpg

Ссылка на комментарий
1 час назад, shahvkit сказал:

Установить K-Lite Codec Pack и забыть о проблемах с кодеками.

Ок. Поставил. И что? Как и писал выше, avi файлы, которые у меня Vegas читал с отдельно установленным Xvid, с кодек паком - не читаются.

Фуфло!

 




Format                                   : AVI
Format/Info                              : Audio Video Interleave
File size                                : 237 MiB
Duration                                 : 19 min 33 s
Overall bit rate                         : 1 691 kb/s

Video
ID                                       : 0
Format                                   : MPEG-4 Visual
Format profile                           : Advanced Simple@L5
Format settings                          : BVOP2
Format settings, BVOP                    : 2
Format settings, QPel                    : No
Format settings, GMC                     : No warppoints
Format settings, Matrix                  : Default (H.263)
Muxing mode                              : Packed bitstream
Codec ID                                 : XVID
Codec ID/Hint                            : XviD
Duration                                 : 19 min 33 s
Bit rate                                 : 275 kb/s
Width                                    : 1 024 pixels
Height                                   : 768 pixels
Display aspect ratio                     : 4:3
Frame rate                               : 14.980 FPS
Original frame rate                      : 25.000 FPS
Color space                              : YUV
Chroma subsampling                       : 4:2:0
Bit depth                                : 8 bits
Scan type                                : Progressive
Compression mode                         : Lossy
Bits/(Pixel*Frame)                       : 0.023
Stream size                              : 38.5 MiB (16%)
Writing library                          : XviD 1.0.3 (UTC 2004-12-20)

Audio
ID                                       : 1
Format                                   : PCM
Format settings                          : Little / Signed
Codec ID                                 : 1
Duration                                 : 19 min 33 s
Bit rate mode                            : Constant
Bit rate                                 : 1 411.2 kb/s
Channel(s)                               : 2 channels
Sampling rate                            : 44.1 kHz
Bit depth                                : 16 bits
Stream size                              : 197 MiB (83%)
Alignment                                : Aligned on interleaves
Interleave, duration                     : 934  ms (13.99 video frames)


 




Format                                   : AVI
Format/Info                              : Audio Video Interleave
File size                                : 23.1 MiB
Duration                                 : 6 min 30 s
Overall bit rate                         : 497 kb/s

Video
ID                                       : 0
Format                                   : VP6
Format profile                           : Simple
Codec ID                                 : VP60
Codec ID/Hint                            : On2
Duration                                 : 6 min 30 s
Bit rate                                 : 138 kb/s
Width                                    : 1 024 pixels
Height                                   : 768 pixels
Display aspect ratio                     : 4:3
Frame rate                               : 15.000 FPS
Bits/(Pixel*Frame)                       : 0.012
Stream size                              : 6.40 MiB (28%)

Audio
ID                                       : 1
Format                                   : PCM
Format settings                          : Little / Signed
Codec ID                                 : 1
Duration                                 : 6 min 30 s
Bit rate mode                            : Constant
Bit rate                                 : 352.8 kb/s
Channel(s)                               : 1 channel
Sampling rate                            : 22.05 kHz
Bit depth                                : 16 bits
Stream size                              : 16.4 MiB (71%)
Alignment                                : Aligned on interleaves
Interleave, duration                     : 997  ms (14.96 video frames)
Interleave, preload duration             : 749  ms

Изменено пользователем aka_sektor
Ссылка на комментарий

Создайте аккаунт или авторизуйтесь, чтобы оставить комментарий

Комментарии могут оставлять только зарегистрированные пользователи

Создать аккаунт

Зарегистрировать новый аккаунт в нашем сообществе. Это несложно!

Зарегистрировать новый аккаунт

Войти

Есть аккаунт? Войти.

Войти

AMK-Team.ru

×
×
  • Создать...